LINUX.ORG.RU

Youtube режет качество у видео

 


1

1

Есть видео с такими параметрами:

Input #0, mov,mp4,m4a,3gp,3g2,mj2, from 'ETS2.mp4':
  Metadata:
    major_brand     : isom
    minor_version   : 512
    compatible_brands: isomiso2avc1mp41
    encoder         : Lavf55.33.100
  Duration: 00:23:47.25, start: 0.000000, bitrate: 2722 kb/s
    Stream #0:0(und): Video: h264 (Constrained Baseline) (avc1 / 0x31637661), yuv420p(tv, bt709), 1920x1080 [SAR 1:1 DAR 16:9], 2720 kb/s, 8.20 fps, 30 tbr, 16k tbn, 60 tbc (default)
    Metadata:
      handler_name    : VideoHandler
    Stream #0:1(und): Audio: aac (mp4a / 0x6134706D), 44100 Hz, stereo, fltp, 131 kb/s (default)
    Metadata:
      handler_name    : SoundHandler
В VLC проигрывается хорошо, Full HD. Но каждый раз при попытке залить его на Youtube, после обработки оно становится 360p, Youtube каждый раз урезает качество. Подскажите пожалуйста, что в нем не так? И есть ли у Youtube четкие требования по параметрам видео, чтобы в нем качество не урезалось? Как ни искал, официальную информацию об этом не нашел.

Перемещено Shaman007 из talks

★★★★★

Ответ на: комментарий от AX

Ну и что конкретно ему не нравится в моем видео? Контейнер mp4, видео кодек h264, аудио кодек AAC.

Rinaldus ★★★★★ ()
Ответ на: комментарий от devl547

Я 12 часов ждал. На ночь поставил, а утром все равно оставалось 360p. Сколько оно может обрабатываться?! Я другие видео заливал, и они у меня не резались абсолютно. И видео куда более тяжелые были.
P.S. И еще превьюшка у видео так и не появилась в настройках для выбора.

Rinaldus ★★★★★ ()
Последнее исправление: Rinaldus (всего исправлений: 1)
Ответ на: комментарий от erzent

Изначальный битрейт у него был 10000, я его выставил для стрима на Twitch.tv. Потом из своего профиля на Twitch я скачал это видео и переконвертировал его в mp4. Ничего больше не менял. И пытаюсь залить на Youtube, но он режет качество. :(

Rinaldus ★★★★★ ()
Ответ на: комментарий от amazpyel

Почему через несколько дней появится? Мои прошлые видео обрабатывались может не сразу, но не более 1 часа. И я не понимаю Вашего сарказма, что здесь смешного?

Rinaldus ★★★★★ ()
Ответ на: комментарий от Rinaldus

Почему через несколько дней появится?

Так, по крайней мере, у меня было.

И я не понимаю Вашего сарказма

Не хочу разводить политсрач.

amazpyel ★★★ ()

Может они так начали продвигать недавно внедренную платную подписку.

tlx ★★★★★ ()
Вы не можете добавлять комментарии в эту тему. Тема перемещена в архив.