LINUX.ORG.RU

[ffmpeg] Посоветуйте опции


0

1

Есть видеокамера Samsung HMX-H100P/XER

ffmpeg -i на один из снятых ей видеозаписей:

Input #0, mov,mp4,m4a,3gp,3g2,mj2, from 'HDV_0423.MP4':
  Metadata:
    major_brand     : avc1
    minor_version   : 0
    compatible_brands: avc1isom
  Duration: 00:00:02.64, start: 0.000000, bitrate: 15802 kb/s
    Stream #0.0(eng): Video: h264, yuv420p, 1920x1080, 16562 kb/s, PAR 1920:1080 DAR 256:81, 25 fps, 25 tbr, 90k tbn, 180k tbc
    Stream #0.1(eng): Audio: aac, 48000 Hz, stereo, s16, 129 kb/s

Нет никакого желание хранить это все в таком размере. Не подскажите опции для конвертации в видео нормального качества небольшого размера? То что пытался подобрать сам было отстойно. Разрешение пусть будет 1024x576.

В звуках присутствуют какие-то высокочастотные помехи. Чем бы их можно убрать?

И зачем она делает аспект 256:81, вместо 16:9? Дяди в самсунге не знают, что a**2/b**2!=a/b?

--

Какие есть годные кедонезависимые видеоредакторы?

★★★★★

Ответ на: комментарий от hikki

.avi

vcodec=mpeg4

HDV_0423.MP4

scale=320:240

Разрешение пусть будет 1024x576.

-oac copy

Audio: aac, 48000 Hz, stereo, s16, 129 kb/s

Качество записи там на 128кбпс не тянет.

Удивительно, но мне такое не подходит.

Tanger ★★★★★ ()
Вы не можете добавлять комментарии в эту тему. Тема перемещена в архив.