LINUX.ORG.RU

FFMPEG. сконвертировать в такой же кодек и формат

 , ,


0

2

Есть видеоредактор Lightworks, который отлично читает видео с canon DSLR.

$ ffprobe -i MVI_4986.MOV -hide_banner
Input #0, mov,mp4,m4a,3gp,3g2,mj2, from 'MVI_4986.MOV':
  Metadata:
    major_brand     : qt  
    minor_version   : 537331968
    compatible_brands: qt  CAEP
    creation_time   : 2016-07-14 10:33:29
  Duration: 00:00:10.44, start: 0.000000, bitrate: 45811 kb/s
    Stream #0:0(eng): Video: h264 (Constrained Baseline) (avc1 / 0x31637661), yuvj420p(pc, smpte170m/bt709/bt709), 1920x1080, 44271 kb/s, 25 fps, 25 tbr, 25k tbn, 50k tbc (default)
    Metadata:
      creation_time   : 2016-07-14 10:33:29
    Stream #0:1(eng): Audio: pcm_s16le (sowt / 0x74776F73), 48000 Hz, stereo, s16, 1536 kb/s (default)
    Metadata:
      creation_time   : 2016-07-14 10:33:29

Есть файлы видео с телефона.

Как мне сконвертировать их в абсолютно такой же формат как из canon DSLR? Я пишу «абсолютно», так как я пробовал делать так

ffmpeg -i video.3gp -acodec pcm_s16le -vcodec libx264 -pix_fmt yuvj420p -profile:v baseline -s hd1080 -r pal -colorspace smpte170m -color_primaries bt709 -color_trc bt709 video.MOV
и в Lightworks такое читается, но тормозит. Обратите внимание что я пробую использовать максимум опций, но пока результат плохой.

Идеально было бы решение передачи всех данных о формате из ffprobe в ffmpeg

Спасибо

Возможно дело в размере и конфигурации GOP. Сравни их в своих файлах.

anonymous ()
Вы не можете добавлять комментарии в эту тему. Тема перемещена в архив.