LINUX.ORG.RU

Сообщения Ford15Mondeo

 

Выбора мыши тред

Здраствуй ЛОР. Посоветуй мышь. Денег на всё 4к. Нужен в основном для игры в Counter-Strike: Global Offensive. Выбираю из: SteelSeries Sensei RAW Razer DeathAdder Chrome Mad Catz R.A.T.3 Что можете сказать о них? Или предложите свои варианты желательно которые есть на nix, потому что местный магаз везёт только оттуда. Линукс тут при том, что играть буду на нём

 , , ,

Ford15Mondeo ()

Тормоза в Left 4 Dead 2

Постоянно при игре в Left 4 Dead 2 через какое-то время начинает всё тормозить. Фпс падает до 10, да к тому же вся система начинает люто тормозить.
блоб невидео
Kubuntu 12.04
http://i.imgur.com/U1fDboX.png
Что делать?

 , ,

Ford15Mondeo ()

Выбора геймпада тред

Здраствуй ЛОР. Посоветуй геймпад. Денег на всё 1к. Нужен в основном для игры в Mortal Kombat и Dark Souls, а также всяких Resident Evil и прочих игр при портировании которых не сделали нормальное управление. Ну и для игр с эмулятора PS1. Выбираю из:
http://www.nix.ru/autocatalog/game_controllers_logitech/Logitech_Gamepad_F310...
http://www.nix.ru/autocatalog/game_controllers_logitech/Logitech_Rumble_Gamep...
http://www.nix.ru/autocatalog/game_controllers_speedlink/SPEEDLINK_Xeox_Wirel...
Что можете сказать о них?
Или предложите свои варианты.

 , , ,

Ford15Mondeo ()

Выбора ssd тред

Здраствуй ЛОР. Посоветуй ssd. Денег на всё 4к. Выбираю из:
http://www.nix.ru/autocatalog/ssd_plextor/SSD_SATA_6Gb_Plextor_PX128M5S_MLC_1...
http://www.nix.ru/autocatalog/ssd_crucial/SSD_SATA_6Gb_Crucial_m4_CT128M4SSD2...
http://www.nix.ru/autocatalog/ssd_corsair/SSD_SATA_6Gb_Corsair_Neutron_CSSDN1...
Что можете сказать о них?
Или предложите свои варианты.
Так же интересует истории успеха по установке ubuntu 12.04 на f2fs

 , , ,

Ford15Mondeo ()

Конвертирование в ffmpeg

ford@mondeo:~/Videos$ ffmpeg -i Breaking.Bad.2x01.Seven.Thirty-Seven.WEB-DL.720p.AC3.mkv -acodec libvorbis -ab 192k -ac 2 -ar 44100 -b 1500k -s 1280x720 Breaking.Bad.2x01.Seven.Thirty-Seven.WEB-DL.720p.AC3.webm
ffmpeg version 0.8.4-4:0.8.4-0ubuntu0.12.04.1, Copyright (c) 2000-2012 the Libav developers
  built on Nov  6 2012 16:51:33 with gcc 4.6.3
*** THIS PROGRAM IS DEPRECATED ***
This program is only provided for compatibility and will be removed in a future release. Please use avconv instead.
[matroska,webm @ 0xd169c0] max_analyze_duration reached
[matroska,webm @ 0xd169c0] Estimating duration from bitrate, this may be inaccurate
Input #0, matroska,webm, from 'Breaking.Bad.2x01.Seven.Thirty-Seven.WEB-DL.720p.AC3.mkv':
  Metadata:
    title           : Breaking Bad 2x01 @ Релиз Kupriy
  Duration: 00:47:14.85, start: 0.000000, bitrate: 1344 kb/s
    Stream #0.0(eng): Video: h264 (High), yuv420p, 1280x720 [PAR 1:1 DAR 16:9], 23.98 fps, 23.98 tbr, 1k tbn, 47.95 tbc (default)
    Stream #0.1(rus): Audio: ac3, 48000 Hz, 5.1, s16, 448 kb/s (default)
    Metadata:
      title           : Dolby Digital 5.1 448 kbps @ Lostfilm
    Stream #0.2(rus): Audio: ac3, 48000 Hz, 5.1, s16, 448 kb/s
    Metadata:
      title           : Dolby Digital 5.1 448 kbps @ foxlight & Melissa
    Stream #0.3(eng): Audio: ac3, 48000 Hz, 5.1, s16, 448 kb/s
    Metadata:
      title           : Dolby Digital 5.1 448 kbps
    Stream #0.4(rus): Subtitle: ass (default)
    Metadata:
      title           : Russian @ ASS @ Forced
    Stream #0.5(rus): Subtitle: ass
    Metadata:
      title           : Russian @ ASS @ Kupriy
    Stream #0.6(eng): Subtitle: ass
    Metadata:
      title           : English @ ASS
[buffer @ 0x10bfee0] w:1280 h:720 pixfmt:yuv420p
[libvpx @ 0xdcccc0] v1.0.0
[libvorbis @ 0xe4ee60] oggvorbis_encode_init: init_encoder failed
Output #0, webm, to 'Breaking.Bad.2x01.Seven.Thirty-Seven.WEB-DL.720p.AC3.webm':
    Stream #0.0(eng): Video: libvpx, yuv420p, 1280x720 [PAR 1:1 DAR 16:9], q=-1--1, 1500 kb/s, 90k tbn, 23.98 tbc (default)
    Stream #0.1(eng): Audio: libvorbis, 44100 Hz, 2 channels, s16, 1500 kb/s
    Metadata:
      title           : Dolby Digital 5.1 448 kbps
Stream mapping:
  Stream #0.0 -> #0.0                                                                                                                                        
  Stream #0.3 -> #0.1                                                                                                                                        
Error while opening encoder for output stream #0.1 - maybe incorrect parameters such as bit_rate, rate, width or height

Как решить проблему?

Перемещено JB из talks

 

Ford15Mondeo ()

sgs2 & ad-hoc

мой sgs2 не видит ad-hoc точки. cm9 и cm10 прошивал.

ув. ЛОР, есть ли у тебя истории успеха по этому поводу?

 ,

Ford15Mondeo ()

Не работает двухканальный режим

motherboard - GigaByte GA-990FXA-D3, ASUS M5A97 R2.0
cpu - AMD Phenom II X4 955
ram - 2* DDR3 Kingmax 8Gb <PC3-10600>, Corsair Vengeance (KIT 4*4Gb)

не работает двухканальный режим памяти. если оставить одну планку в 3 или 4 порту (B1 и B2) - система не загружается (не поступает изображение на монитор).

если 2 планки стоят в первых двух портах - всё работает, но память в одноканальном режиме

Дорогой ЛОР, в чем может быть проблема?

линукс тут при

$ uname -a
Linux ford 3.2.0-23-generic #36-Ubuntu SMP Tue Apr 10 20:39:51 UTC 2012 x86_64 x86_64 x86_64 GNU/Linux

Ford15Mondeo ()

Asus RT-G32 и dd-wrt

прикупил, значит, сей роутер в надежде поставить туда dd-wrt. однако на коробке указано H/W Ver.:C1, в то время как сайт dd-wrt о такой ревизии даже не знает, там есть только A и B1.

Есть ли люди с этой железкой? можно ли на него накатить прошивку от В1?

 ,

Ford15Mondeo ()

breaking news^Wupdates теперь не только в арче!

Решил значит установить openSUSE и посмотреть что за зверь такой. После чёрт его знает какой перекачки образа наконец скачал небитый и установил систему. Обновил систему, перезагрузился. И! http://itmages.ru/image/view/687614/3ebf602a

 , , ,

Ford15Mondeo ()

2Tb отображаются как 1Tb

Имеется жесткий диск Samsung Spinpoint F4EG HD204UI. Вроде как должен быть 2Тб, но отображается как 1Тб. И в онтопике, и в оффтопике, и в биосе.

Это 100% заводской брак или таки можно попробывать что-то подкрутить в системе?

МП: ASUS P5Q Pro (чипсет P45+ICH10R)
ОС: Kubuntu 12.04

Ford15Mondeo ()

RSS подписка на новые темы