LINUX.ORG.RU

ffmpeg: из avi в mpegts (тупо)

 ,


0

1

Привет тебе, высокочтимый All!

Прекрасно сознаю, что проблема наверняка вызвана моим ламерством и решается вполпинка. Но... чего-то я всё-таки не догнал, а потому прошу у тебя помощи.

Задача выглядит простой. Есть авишки, их надо перегнать в MPEG-2 transport stream. То есть, никакого перекодирования не надо, только ремукс.

Вот исходный файл:

Input #0, avi, from 'fur_tv_1.avi':
  Metadata:
    encoder         : VirtualDubMod 1.5.10.2 (build 2540/release)
  Duration: 00:21:32.12, start: 0.000000, bitrate: 1980 kb/s
    Stream #0:0: Video: mpeg4 (Advanced Simple Profile) (XVID / 0x44495658), yuv420p, 720x416 [SAR 1:1 DAR 45:26], 1779 kb/s, 25 fps, 25 tbr, 25 tbn, 25 tbc
    Stream #0:1: Audio: mp3 (U[0][0][0] / 0x0055), 48000 Hz, stereo, s16p, 192 kb/s

Сперва я поступил самым тупым образом:

ffmpeg -hide_banner -i fur_tv_1.avi fur1.ts

Открыв получившийся файл, я ужаснулся: изображение было адски «оквадрачено».

После этого я поступил умнее:

ffmpeg -hide_banner -fflags +genpts -i fur_tv_1.avi -codec copy -f mpegts fur1.ts

Получившийся файл:

Input #0, mpegts, from 'G:\Temp\fur01.ts':
  Duration: 00:21:32.16, start: 1.400000, bitrate: 2154 kb/s
  Program 1
    Metadata:
      service_name    : Service01
      service_provider: FFmpeg
    Stream #0:0[0x100]: Video: mpeg4 (Advanced Simple Profile) ([16][0][0][0] / 0x0010), yuv420p, 720x416 [SAR 1:1 DAR 45:26], 25 fps, 25 tbr, 90k tbn, 25 tbc
    Stream #0:1[0x101]: Audio: mp3 ([3][0][0][0] / 0x0003), 48000 Hz, stereo, s16p, 192 kb/s

Открыл его. Всё чётко, никаких артефактов нет. Но при просмотре ощущение такое, что половина кадров пропущена. То есть, если в исходном файле изображение воспринималось, так сказать, непрерывно изменявшимся, то в результирующем файле оно стало чуть-чуть дёрганым. Как будто действительно кадры раз через раз пропадают. При этом fps в обоих файлах одинакова.

Пробовал я явно указать rate:

ffmpeg -hide_banner -fflags +genpts -r 25 -i fur_tv_1.avi -r 25 -codec copy -f mpegts fur1.ts
но результат был тот же.

Что я делаю не так? Наверняка где-то какую-то мелочь упустил :(

Ответ на: комментарий от Andrey_Utkin

Будет вот что:

Input #0, avi, from 'fur_tv_1.avi':
  Metadata:
    encoder         : VirtualDubMod 1.5.10.2 (build 2540/release)
  Duration: 00:21:32.12, start: 0.000000, bitrate: 1980 kb/s
    Stream #0:0: Video: mpeg4 (Advanced Simple Profile) (XVID / 0x44495658), yuv420p, 720x416 [SAR 1:1 DAR 45:26], 1779 kb/s, 25 fps, 25 tbr, 25 tbn, 25 tbc
    Stream #0:1: Audio: mp3 (U[0][0][0] / 0x0055), 48000 Hz, stereo, s16p, 192 kb/s
Output #0, mpegts, to 'fur1_.ts':
  Metadata:
    encoder         : Lavf56.34.100
    Stream #0:0: Video: mpeg4 (XVID / 0x44495658), yuv420p, 720x416 [SAR 1:1 DAR 45:26], q=2-31, 1779 kb/s, 25 fps, 25 tbr, 90k tbn, 25 tbc
    Stream #0:1: Audio: mp3 (U[0][0][0] / 0x0055), 48000 Hz, stereo, 192 kb/s
Stream mapping:
  Stream #0:0 -> #0:0 (copy)
  Stream #0:1 -> #0:1 (copy)
Press [q] to stop, [?] for help
[mpegts @ 042308e0] first pts value must be set
av_interleaved_write_frame(): Invalid data found when processing input
frame=    1 fps=0.0 q=-1.0 Lsize=      13kB time=00:00:00.50 bitrate= 217.8kbits/s
video:4kB audio:12kB subtitle:0kB other streams:0kB global headers:0kB muxing overhead: unknown
Conversion failed!

Потому-то и был добавлен флаг genpts...

Я просто лишние шаги пропустил в своём повествовании. Так-то понятно, что в командную строку вносил изменения поштучно :)

Abyrvalg ()

Попробовал с первым попавшимся avi. Те же симптомы. Решилось тем же -fflags +genpts. Всё ОК, разве что при проигрывании mpv выдаёт постоянные предупреждения:

No video PTS! Making something up.
V: 00:00:00 / 00:09:46 (0%)
No video PTS! Making something up.
V: 00:00:00 / 00:09:46 (0%)
No video PTS! Making something up.
V: 00:00:00 / 00:09:46 (0%)
No video PTS! Making something up.
V: 00:00:00 / 00:09:46 (0%)
No video PTS! Making something up.
V: 00:00:00 / 00:09:46 (0%)
No video PTS! Making something up.
V: 00:00:00 / 00:09:46 (0%)
No video PTS! Making something up.
V: 00:00:00 / 00:09:46 (0%)
No video PTS! Making something up.
V: 00:00:00 / 00:09:46 (0%)
No video PTS! Making something up.
V: 00:00:00 / 00:09:46 (0%)
No video PTS! Making something up.
V: 00:00:00 / 00:09:46 (0%)
No video PTS! Making something up.
V: 00:00:00 / 00:09:46 (0%)
No video PTS! Making something up.
V: 00:00:01 / 00:09:46 (0%)
No video PTS! Making something up.
V: 00:00:01 / 00:09:46 (0%)
No video PTS! Making something up.
V: 00:00:01 / 00:09:46 (0%)
No video PTS! Making something up.
V: 00:00:01 / 00:09:46 (0%)
No video PTS! Making something up.
V: 00:00:01 / 00:09:46 (0%)
No video PTS! Making something up.
V: 00:00:01 / 00:09:46 (0%)
No video PTS! Making something up.
V: 00:00:01 / 00:09:46 (0%)

то в результирующем файле оно стало чуть-чуть дёрганым.

Кажется? А, может, просто плеер с конвертированным файлом не справляется?

gag ★★★★★ ()
Ответ на: комментарий от gag

[quota]Кажется? А, может, просто плеер с конвертированным файлом не справляется?[/quota]

Но с исходным файлов этот же плеер прекрасно справляется... К тому же, я пробовал в разных плеерах.

Abyrvalg ()
Ответ на: комментарий от Abyrvalg

В общем, грабли были в плеере. Media Player Classic дурака валял, в то время как VLC всё отображал как надо. Да ещё, вдобавок, оказалось, что всё-таки надо перелопачивать видео :) Поэтому итоговый вариант пришлось делать таким:

ffmpeg -hide_banner -fflags +genpts -i fur_tv_1.avi -c:v libx264 -profile:v high -b:v 2000K -g 25 -c:a copy -f mpegts fur1.ts

А при изначальной постановке задачи прокатывало такое:

ffmpeg -hide_banner -fflags +genpts -i fur_tv_1.avi -codec copy -f mpegts fur1.ts
Abyrvalg ()
Вы не можете добавлять комментарии в эту тему. Тема перемещена в архив.