LINUX.ORG.RU

kodi не может открыть .ts файлы

 ,


0

1

у меня не показывает .ts именно в kodi при этом тот же тотем показывает. данные видео файла

Input #0, mpegts, from '/home/a1/tmp/sl/Silicon.Valley.S01E02.1080i [Kubik_v_Kube].ts':
  Duration: 00:28:34.18, start: 600.000000, bitrate: 12374 kb/s
  Program 1
    Stream #0:0[0x1011]: Video: mpeg2video (Main) ([2][0][0][0] / 0x0002), yuv420p(tv), 1920x1080 [SAR 1:1 DAR 16:9], max. 24000 kb/s, 29.97 fps, 59.94 tbr, 90k tbn, 59.94 tbc
    Stream #0:1[0x1100](rus): Audio: ac3 (AC-3 / 0x332D4341), 48000 Hz, 5.1(side), fltp, 384 kb/s
    Stream #0:2[0x1101](eng): Audio: ac3 (AC-3 / 0x332D4341), 48000 Hz, 5.1(side), fltp, 384 kb/s
лог kodi


лог kodi

может всё из-за твоей говняной не нужной здоровому человеку, не курильщику, локали?

ru_RU.UTF-8

kep ()
Вы не можете добавлять комментарии в эту тему. Тема перемещена в архив.