LINUX.ORG.RU

Как рестримить m3u8 плейлист ffmpeg+ffserver

 ,


0

1

Видео на входе имеет такой формат Stream #0:0: Video: h264 (High) ([27][0][0][0] / 0x001B), yuv420p, 1920x1080 [SAR 1:1 DAR 16:9], 25 fps, 25 tbr, 90k tbn, 50 tbc Stream #0:1: Audio: aac (LC) ([15][0][0][0] / 0x000F), 48000 Hz, stereo, fltp, 138 kb/s

Хочу его ретранслировать на ffserver

ffmpeg -i -re http://xxx.ru/index.m3u8 -codec copy http://localhost:8090/feed1.ffm

При запуске пишет [http @ 0x10f5420] Stream ends prematurely at 0, should be 18446744073709551615 http://localhost:8090/feed1.ffm: Input/output error

Ответ на: комментарий от bhfq

Сам стрим рабочий. Я изначально делал на nginx+rtmp ffmpeg -re -i http://xxx.m3u8 -c:v copy -c:a aac -ar 44100 -ab 128k -ac 2 -strict -2 -flags +global_header -bsf:a aac_adtstoasc -bufsize 3000k -f mp4 rtmp://localhost/myapp/chan1 Вот так работало а вот с этим ffserver какие то траблы

Radzhab ()
Ответ на: комментарий от anonymous

Ну эт сделаю) А вот как быть с тем что не принимает поток ffserver

Radzhab ()
Вы не можете добавлять комментарии в эту тему. Тема перемещена в архив.