LINUX.ORG.RU

vlc, проблемы с изображением

 , ,


0

1

вообщем некоторые фильмы в vlc воспроизводятся с проблемами, а именно

vlc http://i57.fastpic.ru/big/2014/0226/3b/fb24074fbee0f2efc229f16f7aee083b.png

gnome_mplayer http://i57.fastpic.ru/big/2014/0226/c9/b359f406e2c8243b7a4d75ac24a56dc9.png

Format : MPEG-4 Format profile : Base Media Codec ID : isom File size : 354 MiB Duration : 11mn 27s Overall bit rate mode : Variable Overall bit rate : 4 317 Kbps Movie name : Витли Album : Орлиное сердце, Сезон 3 Album/Performer : Орлиное сердце Part/Position : 3 Track name/Position : 2 Performer : Орлиное сердце Genre : Comedy Recorded date : 2013 Encoded date : UTC 2014-01-02 13:59:25 Tagged date : UTC 2014-01-03 14:01:51 Writing application : LostCoder Copyright : LostFilm.TV (c) Cover : Yes Comment : Полицейский маршал Крис Мансаро - настоящий рейджер. Его побаиваются не только нарушители закона, но даже собственные начальники. Крис – совершенное орудие против преступности, по случаю обуявшей его родной город. Он не знает жалости к врагам, а в отношен stik : 10 tvsh : Орлиное сердце tven : 302 tvsn : 3 tves : 2

Video ID : 1 Format : AVC Format/Info : Advanced Video Codec Format profile : High@L3.1 Format settings, CABAC : No Format settings, ReFrames : 2 frames Codec ID : avc1 Codec ID/Info : Advanced Video Coding Duration : 11mn 27s Bit rate : 4 000 Kbps Maximum bit rate : 9 536 Kbps Width : 1 280 pixels Height : 640 pixels Display aspect ratio : 2.000 Frame rate mode : Variable Frame rate : 23.976 fps Minimum frame rate : 23.974 fps Maximum frame rate : 23.981 fps Color space : YUV Chroma subsampling : 4:2:0 Bit depth : 8 bits Scan type : Progressive Bits/(Pixel*Frame) : 0.204 Stream size : 342 MiB (97%) Writing library : x264 core 112 r1834 a51816a Encoding settings : cabac=0 / ref=3 / deblock=1:0:0 / analyse=0x1:0x111 / me=hex / subme=7 / psy=1 / psy_rd=1.00:0.00 / mixed_ref=1 / me_range=16 / chroma_me=1 / trellis=1 / 8x8dct=0 / cqm=0 / deadzone=21,11 / fast_pskip=1 / chroma_qp_offset=-2 / threads=6 / sliced_threads=0 / nr=0 / decimate=1 / interlaced=0 / constrained_intra=0 / bframes=3 / b_pyramid=2 / b_adapt=1 / b_bias=0 / direct=1 / weightb=1 / open_gop=0 / weightp=2 / keyint=250 / keyint_min=25 / scenecut=40 / intra_refresh=0 / rc_lookahead=40 / rc=abr / mbtree=1 / bitrate=4000 / ratetol=1.0 / qcomp=0.60 / qpmin=0 / qpmax=51 / qpstep=4 / vbv_maxrate=5000 / vbv_bufsize=2000 / ip_ratio=1.40 / aq=1:1.00 / nal_hrd=none Language : English Tagged date : UTC 2014-01-02 13:59:28 Color primaries : BT.709 Transfer characteristics : BT.709 Matrix coefficients : BT.709

Audio ID : 2 Format : AAC Format/Info : Advanced Audio Codec Format profile : LC Codec ID : 40 Duration : 11mn 27s Bit rate mode : Variable Bit rate : 135 Kbps Maximum bit rate : 174 Kbps Channel(s) : 2 channels Channel positions : Front: L R Sampling rate : 48.0 KHz Compression mode : Lossy Stream size : 11.1 MiB (3%) Encoded date : UTC 2014-01-02 13:59:28 Tagged date : UTC 2014-01-02 13:59:28

как видно по скринам,vlc воспроизводит не так как надо

sudo add-apt-repository ppa:videolan/stable-daily
sudo apt-get update
sudo apt-get upgrade
pear-user
()
Последнее исправление: pear-user (всего исправлений: 1)

у меня на интеле при включенном ускорении некоторые видяхи в влц глючат. В мплеере нормально воспроизводятся.

anonymous
()
Вы не можете добавлять комментарии в эту тему. Тема перемещена в архив.