LINUX.ORG.RU

кодеки-декодеки


0

1

Есть ролик, записанный с помощью rtmpdump. mediainfo говорит о нем вполне адекватную информацию:

Format                                   : Flash Video
File size                                : 489 MiB
Duration                                 : 36mn 23s
Overall bit rate                         : 1 880 Kbps
_videokeyframe_frequency                 : 240.000

Video
Format                                   : AVC
Format/Info                              : Advanced Video Codec
Format profile                           : Main@L3.1
Format settings, CABAC                   : Yes
Format settings, ReFrames                : 3 frames
Codec ID                                 : 7
Duration                                 : 36mn 23s
Bit rate mode                            : Constant
Bit rate                                 : 2 025 Kbps
Width                                    : 1 280 pixels
Height                                   : 720 pixels
Display aspect ratio                     : 16:9
Frame rate mode                          : Constant
Frame rate                               : 30.000 fps
Standard                                 : NTSC
Color space                              : YUV
Chroma subsampling                       : 4:2:0
Bit depth                                : 8 bits
Scan type                                : Progressive
Bits/(Pixel*Frame)                       : 0.073
Stream size                              : 527 MiB

Audio
Format                                   : AAC
Format/Info                              : Advanced Audio Codec
Format profile                           : LC
Codec ID                                 : 10
Duration                                 : 36mn 23s
Bit rate                                 : 192 Kbps
Channel(s)                               : 2 channels
Channel positions                        : Front: L R
Sampling rate                            : 44.1 KHz
Compression mode                         : Lossy
Delay relative to video                  : -11s 823ms
Stream size                              : 50.0 MiB (10%)

Однако, vlc, ffmpeg и mplayer не могут там съесть видеодорожку. Соответственно, все производные этого порочного треугольника также обламываются.

  Metadata:
    videokeyframe_frequency: 240
    audiochannels   : 2
  Duration: 00:36:23.32, start: 0.000000, bitrate: 1879 kb/s
    Stream #0:0: Video: none, 2073 kb/s, 1k tbr, 1k tbn, 1k tbc
    Stream #0:1: Audio: aac, 44100 Hz, stereo, s16, 196 kb/s
Unsupported codec with id 0 for input stream 0

От безысходности даже xine поставил - и он, блд, успешно проигрывает! Вопрос: что еще в этих ваших линуксах можно попробовать, чтобы сконвертировать ролик до общепринятого смотрибельного вида?

★★★★★

Ответ на: комментарий от anonymous

Я просто переименовывал flv в mp4, и он начинал проигрываться, странно да?

anonymous ()

Ко́дек (англ. codec, от coder/decoder — шифратор/дешифратор — кодировщик/декодировщик или compressor/decompressor)

декодек

Сам-то понял, что написал?

Falcon-peregrinus ★★★★★ ()

mplayer -vfm ffmpeg $FILENAME пробовал?

devl547 ★★★★★ ()

Ответ на комментарий BMX:

Куда дели OGG/Vorbis в Jamendo? (комментарий)

Это уже не работает, они это выпилили при переходе на новый дизайн сайта (и новый API). Говорят, профиле можно выбрать формат ogg для онлайн прослушивания (таким образом можно потреково сохранять ogg файлы, но там качество q2). Вроде обещали вернуть загрузку альбомов в OGG, но когда это будет…

(also cast d)

По данному вопросу разработчики Jamendo отвечают здесь.

Ваш Firestarter.

anonymous ()
Ответ на: Re: Внезапно! от anonymous

Re: загрузка flack с Jamendo.com

Сделал форк:

  • добавил загрузку обложки
  • убрал из скрипта удаление из имени файлов неанглийских букв
  • добавил информацию о лицензии в теги аудиофайлов
anonymous ()
Ответ на: Внезапно! от d

Посмотрел, попробовал. Такое впечатление, что я что-то делаю не так.

чисто для теста взял первый попавшийся трек, скормил на него ссылку:

http://www.jamendo.com/en/track/19630/conquest-of-the-west-conquete-de-l-ouest

не работает: создаёт пустую директорию и всё, скормил в таком виде: «19630/conquest-of-the-west-conquete-de-l-ouest» — аналогично

next_time ★★★★★ ()
Ответ на: комментарий от next_time

дык ссылку на альбом надо скармливать

BMX ★★☆ ()

декодеки

Вот это рекурсия! :)

KRoN73 ★★★★★ ()
Ответ на: комментарий от next_time

Скрипт может загружать только альбомы потреково. То есть нужно скармливать ссылку на альбом.

А скачать одиночный трек в flac можно без скрипта. Выбираешь загрузку трека, получаешь ссылку вида http://storage-new.newjamendo.com/download/track/19626/ogg1/?u= и заменяешь ogg1 (или mp3) на flac.

anonymous ()
Вы не можете добавлять комментарии в эту тему. Тема перемещена в архив.