LINUX.ORG.RU

Ответ на: комментарий от return12

чем играем сей wmv?-без разницы

А быть может это только вы так думаете. Список того, чем пробовали? ffmpeg -i file.wmv?

Tanger ★★★★★
()
Ответ на: комментарий от return12

покажи выхлоп ffmpeg -i file.wmv Что-то типа

Input #0, avi, from 'Das.boot.1985.dvdrip_[2.18]_[teko].avi':
  Metadata:
    encoder         : VirtualDubMod 1.5.10.2 (build 2540/release)
  Duration: 04:41:18.40, start: 0.000000, bitrate: 1110 kb/s
    Stream #0:0: Video: mpeg4 (Advanced Simple Profile) (XVID / 0x44495658), yuv420p, 656x352 [SAR 1:1 DAR 41:22], 25 tbr, 25 tbn, 25 tbc
    Stream #0:1: Audio: mp3 (U[0][0][0] / 0x0055), 48000 Hz, stereo, s16, 128 kb/s

Tanger ★★★★★
()
Ответ на: комментарий от Tanger

вот лучше ошибка mplayer

Unsupported sample format
Unsupported sample format
Unsupported sample format

Too many video packets in the buffer: (4096 in 87963899 bytes).
Maybe you are playing a non-interleaved stream/file or the codec failed?
For AVI files, try to force non-interleaved mode with the -ni option.

Too many video packets in the buffer: (4096 in 87963899 bytes).
Maybe you are playing a non-interleaved stream/file or the codec failed?
For AVI files, try to force non-interleaved mode with the -ni option.

Too many video packets in the buffer: (4096 in 87963899 bytes).
Maybe you are playing a non-interleaved stream/file or the codec failed?
For AVI files, try to force non-interleaved mode with the -ni option.

Too many video packets in the buffer: (4096 in 87963899 bytes).
Maybe you are playing a non-interleaved stream/file or the codec failed?
For AVI files, try to force non-interleaved mode with the -ni option.

Too many video packets in the buffer: (4096 in 87963899 bytes).
Maybe you are playing a non-interleaved stream/file or the codec failed?
For AVI files, try to force non-interleaved mode with the -ni option.
ad_ffmpeg: initial decode failed
Audio decoder init failed for codecs.conf entry "ffwmav2".
Selected audio codec: Windows Media Audio DMO [dmo]
AUDIO: 44100 Hz, 2 ch, ??, 128.0 kbit/9.07% (ratio: 16000->176400)
ID_AUDIO_BITRATE=128000
ID_AUDIO_RATE=44100
ID_AUDIO_NCH=2
[format] The number of bytes per sample must be 1, 2, 3 or 4. Current value is 8 
Error at audio filter chain pre-init!

Exiting... (Fatal error)
ID_EXIT=ERROR

return12
() автор топика
Ответ на: комментарий от return12
ffmpeg -i /media/CAPTURE/TORRENT/77.wmv
ffmpeg version N-46997-g32cd3a7 Copyright (c) 2000-2012 the FFmpeg developers
  built on Nov 23 2012 04:13:38 with gcc 4.7 (SUSE Linux)
  configuration: --enable-gpl --enable-version3 --enable-shared --enable-nonfree --enable-postproc --enable-libfaac --enable-libmp3lame --enable-libopencore-amrnb --enable-libopencore-amrwb --enable-libtheora --enable-libvorbis --enable-libvpx --enable-libx264 --enable-libxvid --enable-x11grab --extra-cflags=-I/usr/local/include --extra-ldflags=-L/usr/local/lib
  libavutil      52.  8.100 / 52.  8.100
  libavcodec     54. 76.100 / 54. 76.100
  libavformat    54. 37.100 / 54. 37.100
  libavdevice    54.  3.100 / 54.  3.100
  libavfilter     3. 23.102 /  3. 23.102
  libswscale      2.  1.102 /  2.  1.102
  libswresample   0. 17.101 /  0. 17.101
  libpostproc    52.  2.100 / 52.  2.100
[wmv3 @ 0x85a67a0] Extra data: 8 bits left, value: 0
Guessed Channel Layout for  Input Stream #0.0 : stereo
Input #0, asf, from '/media/CAPTURE/TORRENT/77.wmv':
  Metadata:
    WMFSDKVersion   : 11.0.5721.5275
    WMFSDKNeeded    : 0.0.0.0000
    IsVBR           : 1
    VBR Peak        : 451
    Buffer Average  : 286
  Duration: 00:20:57.46, start: 0.000000, bitrate: 4188 kb/s
    Stream #0:0: Audio: wmav2 (a[1][0][0] / 0x0161), 44100 Hz, stereo, fltp, 128 kb/s
    Stream #0:1: Video: wmv3 (Main) (WMV3 / 0x33564D57), yuv420p, 1280x720, 4040 kb/s, SAR 1:1 DAR 16:9, 25 tbr, 1k tbn, 1k tbc
At least one output file must be specified
return12
() автор топика
Ответ на: комментарий от return12

до установки нескольких пакетов pulse везде было нормально ,выключаю pulse вообще видео нет , хотя в тестах в phohohe окей

return12
() автор топика
Ответ на: комментарий от anonymous

создал asound с текстом как узнать командой какой hw ? у меня 3 вывода hw

pcm.!default {
      type plug
      slave.pcm {
              type hw
              card 0
              device 3
      }
 }

return12
() автор топика
Ответ на: комментарий от return12

Ну у меня чуть больше установлено пакетов, чем у вас, а так вроде все нормально, хотя я не очень в этом разбираюсь. Если хотите, то попробуйте доустановить pulseaudio-module-x11.

anonymous
()
Ответ на: комментарий от return12

Простите, но я не очень понимаю, что вы хотите. Выше вы писали, что у вас три вывода hw, теперь как увидеть этот вывод hw...

pcm.!default {
      type plug
      slave.pcm {
              type hw
              card 0
              device 3
      }
 }

Что вы хотите изменить тут? card? device?

anonymous
()
Ответ на: комментарий от return12

у меня hw 0 HDMI hw 1 аналог и цифра выберу hw 1 0

return12
() автор топика
Ответ на: комментарий от anonymous
aplay -l
**** List of PLAYBACK Hardware Devices ****
card 0: Generic [HD-Audio Generic], device 3: HDMI 0 [HDMI 0]
  Subdevices: 1/1
  Subdevice #0: subdevice #0
card 1: SB [HDA ATI SB], device 0: ALC887-VD Analog [ALC887-VD Analog]
  Subdevices: 1/1
  Subdevice #0: subdevice #0
card 1: SB [HDA ATI SB], device 1: ALC887-VD Digital [ALC887-VD Digital]
  Subdevices: 1/1
  Subdevice #0: subdevice #0
return12
() автор топика
Вы не можете добавлять комментарии в эту тему. Тема перемещена в архив.