LINUX.ORG.RU

Сообщения samlabs821

 

HDFS vs CEPH vs SAN (enterprise)

Давно волнует какой метод выбрать для хранения файлов. Файлы (в основном doc, pdf) меняются очень быстро. На данный момент храним в обычном LUN, который раздается через NFS на ноды (все плохо). Все добро весит 20ТБ и продолжает расти.

Помогите определиться с выбором хранилища. Самое главное требование отказоустойчивость, желательно S3 API. Пробовал на тестовой машине hdfs, показалось медленным. CEPH слишком сложный в администрировании. Боюсь что не сможем осилить. Один из вариантов предложить купить недорогой SAN чтобы мы туда вообще не лезли, но встает вопрос о надежности.....

слышал о glusterfs но опять же хочется чего то попроще

 , , , ,

samlabs821 ()

RHCE стоит ли сдавать

год назад сдавал экзамен на RHCSA. Теперь планирую сдать на engineer. Так как скоро выйдет новый релиз от redhat 7 надо уже в этом году успеть пока они экзамен не поменяли. Как вы думаете стоит ли сдавать этот экзамен и ваши мнения по поводу сертификата?

 , ,

samlabs821 ()

mount vs /proc/mounts

При монтировании диска с опциями barrier=0. Немного запутался, кому верить. Как проверить барьеры?

cat /proc mounts 
/dev/mapper/xfslvm /var xfs rw,noatime,attr2,delaylog,noquota 0 0

cat /etc/mtab
/dev/mapper/xfslvm /var xfs rw,noatime,barrier=0 0 0
samlabs821 ()

команда dd ложит систему

запускаю команду dd if=/dev/zero of=/dev/sdb

Диск начинает записывать нули и в одном месте обрыватся. Индикатор погасает а система на отклики не отвечает. в чем может быть проблема.

dmesg messages ничего подозрительного не показывает, мне кажется даже не успевает что то записать в логи.

Диск размером 3ТБ

Подскажите как решить проблему?

samlabs821 ()

Linux не видит память

На сервере имеется 4 слота памяти, на каждом 4ГБ. Проблема: Ос видит только 8ГБ памяти из 16. Пробовал оставить только 8, ОС видит только 4. Еще пробовал снимать и запускать каждую отдельно. Не могу понять в чем проблема.

Материнская плата x9sci-ln4f Скриншот Сюда!

samlabs821 ()

помогите с GPT и mdadm

Добрый вечер. Принесли сервер, мне надо будет виртуализацию поднять. думаю что поставить. До этого ставили Xenserver, но он какой то не гибкий, со своими скриптами еще. Решил поставить Centos 6 и KVM.

Есть 4 диска в каждом 3тб. Проблема в том чтобы сделать mdadm-raid1, через GPT не хочет (c загрузчиком)

Точно такая же проблема была здесь -> [Fedora 14] Проблема с mdadm и GPT

Как посоветуете разделить диски, и как организвать raid. В принципе пару диск не жалко для зеркало.

 , , , ,

samlabs821 ()

Помогите настроить postfix

Как заставить postfix хранить почту в /var/mail/$user и в папке home/user/Maildir?

Искал в гугле но там предлагают только перенести

samlabs821 ()

Посоветуйте как восстановить raid 1

всем салам. Волнует один вопрос. Есть у меня сервер с софт рейд raid-1. 2 диска по 3 раздела. Но зеркало только на одном разделе.

как создавался рейд:

# fdisk -l /dev/sda

Disk /dev/sda: 2000.3 GB, 2000398934016 bytes
255 heads, 63 sectors/track, 243201 cylinders
Units = cylinders of 16065 * 512 = 8225280 bytes

   Device Boot      Start         End      Blocks   Id  System
/dev/sda1   *           1         784     6291456   83  Linux
Partition 1 does not end on cylinder boundary.
/dev/sda2             784        1567     6291456   83  Linux
/dev/sda3            1567      243201  1940929089   fd  Linux raid autodetect


# sfdisk -d /dev/sda | sfdisk --force /dev/sdb

# echo -e "t\n3\nfd\nw\n" | fdisk /dev/sda
# echo -e "t\n3\nfd\nw\n" | fdisk /dev/sdb

# fdisk -l /dev/sdb

Disk /dev/sdb: 2000.3 GB, 2000398934016 bytes
255 heads, 63 sectors/track, 243201 cylinders
Units = cylinders of 16065 * 512 = 8225280 bytes

   Device Boot      Start         End      Blocks   Id  System
/dev/sdb1   *           1         784     6291456   83  Linux
Partition 1 does not end on cylinder boundary.
/dev/sdb2             784        1567     6291456   83  Linux
/dev/sdb3            1567      243201  1940929089   fd  Linux raid autodetect


# mdadm --create /dev/md0 -l 1 -n 2 /dev/sda3 /dev/sdb3

# df -h
/dev/sda1             6.0G  2.0G  3.7G  35% /
/dev/mapper/XSLocalEXT--b95d88a9--1e61--6a6b--edf1--78fd33a611fd-b95d88a9--1e61--6a6b--edf1--78fd33a611fd
                      1.8T  589G  1.2T  35% /var/run/sr-mount/b95d88a9-1e61-6a6b-edf1-78fd33a611fd

как видите первый раздел не является рейдом, а в третьем лежит storage xenserver.

У меня есть один идентичный запасной диск. Хочу сделать копию /root раздела на случай повреждения основного диска.

Что можете посоветовать?

 , , ,

samlabs821 ()

Выбор сервера

Всем салам! Помогите с выбором блейд сервера. Планируется ставить RAID 1+0. На нем будет очень важная информация. Стоит ли покупать hardware-raid или все же software? Требуется горячая замена дисков. Пока думаю в сторону HP. Ну еще Xenserver планируется

Кто что предлагает?

 ,

samlabs821 ()

ошибка при конвертации mpeg -> H624

помогите с конвертацией видео (mpeg) на H264. Все собрал из репов

Выдает ошибку, именно на середине

ffmpeg -i /home/user1/Downloads/Titanic.avi -vcodec libx264  -vpre medium /home/user1/titanic.mp4
FFmpeg version SVN-r26402, Copyright (c) 2000-2011 the FFmpeg developers
  built on Apr 14 2012 20:37:48 with gcc 4.4.5
  configuration: --enable-gpl --enable-nonfree --enable-pthreads --enable-x11grab --enable-libdc1394 --enable-libfaac --enable-libgsm --enable-libmp3lame --enable-libtheora --enable-libvorbis --enable-libx264 --enable-libxvid --enable-zlib
  libavutil     50.36. 0 / 50.36. 0
  libavcore      0.16. 1 /  0.16. 1
  libavcodec    52.108. 0 / 52.108. 0
  libavformat   52.93. 0 / 52.93. 0
  libavdevice   52. 2. 3 / 52. 2. 3
  libavfilter    1.74. 0 /  1.74. 0
  libswscale     0.12. 0 /  0.12. 0
Input #0, avi, from '/home/user1/Downloads/Titanic_HDTVRip_[rutracker.org]_by_Scarabey.avi':
  Metadata:
    encoder         : VirtualDubMod 1.5.10.2 (build 2540/release)
  Duration: 03:06:49.96, start: 0.000000, bitrate: 1115 kb/s
    Stream #0.0: Video: mpeg4, yuv420p, 704x304 [PAR 1:1 DAR 44:19], 25 tbr, 25 tbn, 25 tbc
    Stream #0.1: Audio: ac3, 48000 Hz, stereo, s16, 192 kb/s
[buffer @ 0xa6468a0] w:704 h:304 pixfmt:yuv420p
[libx264 @ 0xa6148d0] using SAR=1/1
[libx264 @ 0xa6148d0] using cpu capabilities: MMX2 SSE2Fast SSSE3 FastShuffle SSE4.2
[libx264 @ 0xa6148d0] profile High, level 3.0
[libx264 @ 0xa6148d0] 264 - core 122 r2184 5c85e0a - H.264/MPEG-4 AVC codec - Copyleft 2003-2012 - http://www.videolan.org/x264.html - options: cabac=1 ref=3 deblock=1:0:0 analyse=0x3:0x113 me=hex subme=7 psy=1 psy_rd=1.00:0.00 mixed_ref=1 me_range=16 chroma_me=1 trellis=1 8x8dct=1 cqm=0 deadzone=21,11 fast_pskip=1 chroma_qp_offset=-2 threads=1 sliced_threads=0 nr=0 decimate=1 interlaced=0 bluray_compat=0 constrained_intra=0 bframes=3 b_pyramid=2 b_adapt=1 b_bias=0 direct=1 weightb=1 open_gop=0 weightp=2 keyint=250 keyint_min=25 scenecut=40 intra_refresh=0 rc_lookahead=40 rc=abr mbtree=1 bitrate=200 ratetol=1.0 qcomp=0.60 qpmin=10 qpmax=51 qpstep=4 ip_ratio=1.41 aq=1:1.00
Output #0, mp4, to '/home/user1/titanic.mp4':
  Metadata:
    encoder         : Lavf52.93.0
    Stream #0.0: Video: libx264, yuv420p, 704x304 [PAR 1:1 DAR 44:19], q=10-51, 200 kb/s, 25 tbn, 25 tbc
    Stream #0.1: Audio: libfaac, 48000 Hz, stereo, s16, 64 kb/s
Stream mapping:
  Stream #0.0 -> #0.0
  Stream #0.1 -> #0.1
Press [q] to stop encoding



[ac3 @ 0xa616f80] incomplete frame  359982kB time=11204.72 bitrate= 263.2kbits/s dup=2 drop=0    
frame=280249 fps= 64 q=35.0 Lsize=  368370kB time=11209.88 bitrate= 269.2kbits/s dup=2 drop=0    
video:272229kB audio:87796kB global headers:0kB muxing overhead 2.317726%
frame I:3593  Avg QP:30.58  size:  6077
[libx264 @ 0xa6148d0] frame P:121126 Avg QP:34.84  size:  1634
[libx264 @ 0xa6148d0] frame B:155530 Avg QP:38.18  size:   379
[libx264 @ 0xa6148d0] consecutive B-frames:  9.4% 44.7% 14.9% 30.9%
[libx264 @ 0xa6148d0] mb I  I16..4: 28.6% 61.2% 10.2%
[libx264 @ 0xa6148d0] mb P  I16..4:  4.0%  5.5%  0.3%  P16..4: 38.9%  5.5%  2.2%  0.0%  0.0%    skip:43.6%
[libx264 @ 0xa6148d0] mb B  I16..4:  0.1%  0.1%  0.0%  B16..8: 26.3%  1.0%  0.1%  direct: 0.2%  skip:72.2%  L0:35.0% L1:63.5% BI: 1.4%
[libx264 @ 0xa6148d0] final ratefactor: 32.82
[libx264 @ 0xa6148d0] 8x8 transform intra:57.7% inter:85.1%
[libx264 @ 0xa6148d0] coded y,uvDC,uvAC intra: 27.7% 36.7% 5.0% inter: 5.0% 4.1% 0.0%
[libx264 @ 0xa6148d0] i16 v,h,dc,p: 40% 25% 12% 24%
[libx264 @ 0xa6148d0] i8 v,h,dc,ddl,ddr,vr,hd,vl,hu: 19% 12% 38%  5%  6%  6%  5%  5%  5%
[libx264 @ 0xa6148d0] i4 v,h,dc,ddl,ddr,vr,hd,vl,hu: 26% 17% 22%  6%  7%  7%  6%  5%  4%
[libx264 @ 0xa6148d0] i8c dc,h,v,p: 74% 11% 13%  2%
[libx264 @ 0xa6148d0] Weighted P-Frames: Y:2.8% UV:1.0%
[libx264 @ 0xa6148d0] ref P L0: 66.6% 15.6% 13.0%  4.7%  0.1%
[libx264 @ 0xa6148d0] ref B L0: 90.9%  8.3%  0.8%
[libx264 @ 0xa6148d0] ref B L1: 97.8%  2.2%
[libx264 @ 0xa6148d0] kb/s:198.94

Красным выделено : [ac3 @ 0xa616f80] incomplete frame

 , ,

samlabs821 ()

ошибка при запуске ffmpeg (libx264)

Помогите исправить ffmpeg libx264


root@debian:~/ffmpeg# /sbin/ldconfig -p | grep libx264    
	libx264.so.120 (libc6) => /usr/local/lib/libx264.so.120
	libx264.so (libc6) => /usr/local/lib/libx264.so

root@debian:~/ffmpeg# ffmpeg -i /var/www/video/hobbit.mp4 
ffmpeg: error while loading shared libraries: libx264.so.122: cannot open shared object file: No such file or directory

root@debian:~/ffmpeg# ldd $(which ffmpeg)
	linux-gate.so.1 =>  (0xb7851000)
	libX11.so.6 => /usr/lib/libX11.so.6 (0xb7726000)
	libXext.so.6 => /usr/lib/libXext.so.6 (0xb7717000)
	libXfixes.so.3 => /usr/lib/libXfixes.so.3 (0xb7712000)
	libjack.so.0 => /usr/lib/libjack.so.0 (0xb76f8000)
	libasound.so.2 => /usr/lib/libasound.so.2 (0xb7630000)
	libxvidcore.so.4 => /usr/local/lib/libxvidcore.so.4 (0xb7518000)
	libx264.so.122 => not found
	libtheoraenc.so.1 => /usr/lib/libtheoraenc.so.1 (0xb74d5000)
	libtheoradec.so.1 => /usr/lib/libtheoradec.so.1 (0xb74bb000)
	libfaac.so.0 => /usr/lib/libfaac.so.0 (0xb74aa000)
	libva.so.1 => /usr/lib/libva.so.1 (0xb744d000)
	libm.so.6 => /lib/i686/cmov/libm.so.6 (0xb7427000)
	libbz2.so.1.0 => /lib/libbz2.so.1.0 (0xb7416000)
	libz.so.1 => /usr/lib/libz.so.1 (0xb7402000)
	libpthread.so.0 => /lib/i686/cmov/libpthread.so.0 (0xb73e8000)
	libc.so.6 => /lib/i686/cmov/libc.so.6 (0xb72a1000)
	libxcb.so.1 => /usr/lib/libxcb.so.1 (0xb7288000)
	libdl.so.2 => /lib/i686/cmov/libdl.so.2 (0xb7284000)
	librt.so.1 => /lib/i686/cmov/librt.so.1 (0xb727b000)
	libogg.so.0 => /usr/lib/libogg.so.0 (0xb7274000)
	/lib/ld-linux.so.2 (0xb7852000)
	libXau.so.6 => /usr/lib/libXau.so.6 (0xb7271000)
	libXdmcp.so.6 => /usr/lib/libXdmcp.so.6 (0xb726c000)

 ,

samlabs821 ()

помогите сконверитровать xVid в mp4

есть видео в формате avi. вот инфо о файле

  built on Apr 13 2012 10:52:01 with gcc 4.4.5
  configuration: --disable-vaapi
  libavutil      51. 46.100 / 51. 46.100
  libavcodec     54. 14.101 / 54. 14.101
  libavformat    54.  3.100 / 54.  3.100
  libavdevice    53.  4.100 / 53.  4.100
  libavfilter     2. 69.101 /  2. 69.101
  libswscale      2.  1.100 /  2.  1.100
  libswresample   0. 11.100 /  0. 11.100
Input #0, avi, from '/home/user1/Downloads/file.avi':
  Metadata:
    encoder         : VirtualDubMod 1.5.10.2 (build 2540/release)
  Duration: 03:06:49.96, start: 0.000000, bitrate: 1115 kb/s
    Stream #0:0: Video: mpeg4 (Advanced Simple Profile) (XVID / 0x44495658), yuv420p, 704x304 [SAR 1:1 DAR 44:19], 25 tbr, 25 tbn, 25 tbc
    Stream #0:1: Audio: ac3 ([0] [0][0] / 0x2000), 48000 Hz, stereo, s16, 192 kb/s

вот ошибка

[NULL @ 0xa553540] Codec is experimental but experimental codecs are not enabled, see -strict -2
Output #0, mp4, to '/home/user1/output.mp4':
  Metadata:
    encoder         : VirtualDubMod 1.5.10.2 (build 2540/release)
    Stream #0:0: Video: mpeg4, yuv420p, 704x304 [SAR 1:1 DAR 44:19], q=2-31, 200 kb/s, 90k tbn, 25 tbc
    Stream #0:1: Audio: none, 48000 Hz, stereo, flt, 128 kb/s
Stream mapping:
  Stream #0:0 -> #0:0 (mpeg4 -> mpeg4)
  Stream #0:1 -> #0:1 (ac3 -> aac)
Error while opening encoder for output stream #0:1 - maybe incorrect parameters such as bit_rate, rate, width or height

 , , , ,

samlabs821 ()

Шрифты для терминала

Посоветуйте нормальные шрифты. Сейчас стоит Terminus 9.Кажется слишком мелким, а 11 размер слишком большой. Droid sans mono не предлагать

samlabs821 ()

Xenserver vs KVM

Всем привет. Стоит задача поставить виртуалку на сервер. Поставил Xen с softraid. Но на продакшн еще не поставили. Здесь пишут что KVM лучше -> http://www.netangels.ru/support/xen-vs-kvm/

Пока еще есть время передумать, что вы думаете какой лучше ставить?

samlabs821 ()

Помогите с RewriteRule

Мне надо настроить апаче с томкатом. Настроил mod_jk и апаче. Но не хватает еще чуть чуть. Например чтобы зайти на alfresco мне надо в браузере писать docs.site.kz/alfresco. А в идеале хотел docs.site.kz -> и чтобы апач меня перенаправлял на docs.site.kz/alfresco

вот что прописал в апаче

<VirtualHost *:80>
ServerName share.site.kz
RewriteEngine On
RewriteLogLevel 3
RewriteLog "/var/log/apache2/rewrite.log"
RewriteCond %{REQUEST_URI} !^/share/
RewriteRule ^/. http://share.site.kz/share/ [R]
JkMount /share/* ajp13_worker
</VirtualHost>

<VirtualHost *:80>
ServerName docs.site.kz
RewriteEngine On
RewriteLogLevel 3
RewriteLog "/var/log/apache2/rewrite.log"
RewriteCond %{REQUEST_URI} !^/alfresco/
RewriteRule ^/. http://docs.site.kz/alfresco/ [R]
JkMount /alfresco/* ajp13_worker
</VirtualHost>

Помогите

samlabs821 ()

rsync [Невозможное возможно :) ]

Всем привет. В связи с нехваткой места на диске мне нужно перенести на другой сервер zimbra 6. На старом сервере стоит fedora 11. По вашему возможно скопировать сервер полностью через rsync и как ни в чем не бывало запустить его на новом сервере? Если возможно подскажите как и какие трудности меня ожидают?

На сервер нельзя подключить доп. жесткий диск. То есть через LVM не получится

samlabs821 ()

Reverse DNS lookup

Как настроить Reverse DNS lookup? У меня стоит зимбра на одном серваке, а sendmail на другом. Некоторые компании блокируют мои сообщения. Пишет что: <<< 550 5.7.1 This system is configured to reject mail from $yourip (DNS reverse lookup failed) 554 5.0.0 Service unavailable

Как решить эту проблему?

samlabs821 ()

Посоветуйте как насторить tomcat

У меня сервер ubuntu LTS.

Цель: поставить alfresco из war файла. Мне нужен предустановленный томкат, помогите как его поставить. Можно через apt-get install, но он разбрасывает томкат по папкам.

Или можно скачать томкат и поставить в папку opt. Какой вариант лучше по вашему?

samlabs821 ()

openldap для юзеров

Есть openldap сервер с пользователями. нужно что-то вроде странички/ссылки, которую ты даешь юзеру и он проходя по ней, вбивает себе новый пароль.

samlabs821 ()

вопрос по openldap

Всем привет. Помогите поменять dn: в openldap. сейчас первый аттрибут стоит cn. как можно поменять на uid? и еще как можно добавить аттрибут email.

dn: cn=Beibyt Azymbek,ou=users,dc=org,dc=kz
givenName: Beibyt
sn: Azymbek
cn: Beibyt Azymbek
uid: azymbek
userPassword:: e01ENX1YeGc1aEM4dnRwZWI5VFNRMlorbGpnPT0=
uidNumber: 1012
gidNumber: 1000
homeDirectory: /home/users/azymbek
objectClass: inetOrgPerson
objectClass: posixAccount
objectClass: top
structuralObjectClass: inetOrgPerson
entryUUID: 882d0fc4-6351-1030-860b-7ffbdda836ea
creatorsName: cn=admin,dc=org,dc=kz
createTimestamp: 20110825103418Z
entryCSN: 20110825103418.526675Z#000000#000#000000
modifiersName: cn=admin,dc=org,dc=kz
modifyTimestamp: 20110825103418Z
samlabs821 ()

RSS подписка на новые темы