LINUX.ORG.RU

[ffmpeg2theora][rtsp] перекодировка потока


0

1

ffmpeg2theora -f rtsp --noaudio --no-skeleton -x 640 -y 512 -o /dev/stdout rtsp://192.168.1.39/play2.sdp | ./oggfwd.linux.bin -p -n «Test» айпи пароль точка

Вот пытаюсь схватить rtsp поток, а эта дрянь, несмотря на то, что поддерживает его, ждёт конца файла. Вот что делать-то?

Приходящий файл видит как: Duration: N/A, start: 0.000000, bitrate: N/A Stream #0.0: Video: mpeg4, yuv420p, 640x512 [PAR 1:1 DAR 5:4], 30k tbr, 90k tbn, 30k tbc Stream #0.1: Audio: pcm_mulaw, 8000 Hz, 1 channels, s16, 64 kb/s [audio disabled].

Есть идея послать ему поток с mplayer, например, но как это сделать-то…

--nosync, для тех, кто тоже ищет ответ. Сам задал вопрос, сам ответил.

alexmaru ()
Вы не можете добавлять комментарии в эту тему. Тема перемещена в архив.