LINUX.ORG.RU

Пережать видео с avconv

 , , ,


0

2

Есть несколько .avi весом по 800-1200 MB.

avprobe version 11.3, Copyright (c) 2007-2014 the Libav developers
  built on Mar 24 2015 23:50:12 with gcc 4.9.2 (Gentoo 4.9.2 p1.2, pie-0.6.2)
Input #0, avi, from '1.avi':
  Metadata:
    encoder         : VirtualDubMod 1.5.10.3 | http://www.virtualdub-fr.org || (build 2550/release)
  Duration: 00:58:06.53, start: 0.000000, bitrate: 2256 kb/s
    Stream #0.0: Video: mpeg4 (Advanced Simple Profile), yuv420p, 720x400 [PAR 1:1 DAR 9:5], 23.98 fps, 23.98 tbn, 23.98 tbc
    Stream #0.1: Audio: ac3, 48000 Hz, 5.1, fltp, 448 kb/s
# avprobe output

Надо уменьшить их размер, сжать. Я так предполагаю, что надо уменьшить битрейт аудио (448 — многовато, не так ли?..). И пережать в mp4, так? Если есть ещё предложения — предлагайте. Желательно, с avconv. Даже очень желательно.


И пережать в mp4, так?

В смысле в mp4? mp4 это контейнер, avi это контейнер

mpeg4 пережми в h.264

most-fucktum ()
Вы не можете добавлять комментарии в эту тему. Тема перемещена в архив.