LINUX.ORG.RU

Какие есть encoder -ы для amr формата?


0

0

Кто чем перегоняет звук в amr формат для сотового? ffmpeg вылетает с ошибками. Если у вас это получается ffmpeg -ом скажите какую версию используете. И какие параметры используете.

ffmpeg -i file.mp4 -s 176x144 file.3gp

FFmpeg version SVN-rUNKNOWN, Copyright (c) 2000-2006 Fabrice Bellard, et al. configuration: --prefix=/usr --libdir=/usr/lib64 --shlibdir=/usr/lib64 --mandir=/usr/share/man --enable-static --enable-shared --cc=x86_64-pc-linux-gnu-gcc --disable-altivec --disable-debug --disable-v4l --disable-v4l2 --disable-dv1394 --disable-opts --enable-mp3lame --enable-amr_nb --enable-amr_wb --enable-gpl --enable-pp --disable-strip

libavutil version: 49.0.1 libavcodec version: 51.20.0 libavformat version: 50.6.0 built on Mar 24 2007 00:15:48, gcc: 4.1.1 (Gentoo 4.1.1-r3) Input #0, mov,mp4,m4a,3gp,3g2,mj2, from 'file.mp4': Duration: 00:03:54.0, start: 0.000000, bitrate: 1167 kb/s Stream #0.0(fre): Data: mp4s / 0x7334706D Stream #0.1(fre): Data: mp4s / 0x7334706D Stream #0.2(eng): Video: mpeg4, yuv420p, 624x336, 25.00 fps(r) Stream #0.3(eng): Audio: mp4a / 0x6134706D, 48000 Hz, stereo Output #0, 3gp, to 'file.3gp': Stream #0.0: Video: h263, yuv420p, 176x144, q=2-31, 200 kb/s, 25.00 fps(c) Stream #0.1: Audio: amr_nb, 48000 Hz, stereo, 64 kb/s Stream mapping: Stream #0.2 -> #0.0 Stream #0.3 -> #0.1 [h263 @ 0x2aed53e5edf0]removing common factors from framerate Error while opening codec for output stream #0.1 - maybe incorrect parameters such as bit_rate, rate, width or height

Много всяких опций и файлов перепробовал ошибка одна и та же.


Ответ на: Re: Какие есть encoder -ы для amr формата? от putpixel

Re: Какие есть encoder -ы для amr формата?

> This is a small perl/kommander script Это скрипт "helper" он пользуется ffmpeg -ом. Если кто нибудь смог сконвертировать этим скриптом скажите какая версия ffmpeg у вас была(или есть)?

SVH ()

Re: Какие есть encoder -ы для amr формата?

С amr временнно жопа - вместо звука шипение. Возможно это связано с тем, что ебилды тянут древние версии референсного кода с конторы-разработчика формата.

Gharik ()

Re: Какие есть encoder -ы для amr формата?

Проблема решена. Всем спасибо.

SVH ()
Вы не можете добавлять комментарии в эту тему. Тема перемещена в архив.