LINUX.ORG.RU

WMV артефачит

 


0

2

Эта гадость на Линуксе способна нормально проигрываться? Почти все файлы при просмотре «расплываются» артефактами и\или иногда появляются зеленые точки, полоски. Есть некоторые, которые проигрываются нормально, но большинство в mpv, gstreamer, vlc с включенным аппаратным ускорением и без сбоит так или иначе.

★★★

А не с DRM ли они? Это типичный симптом. MediaInfo что показывает? У меня проблем с WMV нет. Можешь запихать их в MKV. ffmpeg -i in.wmv -c copy out.mkv

anonymous ()

проверь ещё через ffplay file.vmw. он в кансоль тебе нопишет если бошибки в самом файле.

anonymous ()
Ответ на: комментарий от anonymous

А не с DRM ли они?

Да не, вряд ли, никогда таких и не видел даже, вроде.

Это типичный симптом

Видео с ДРМ просто так вовсе воспроизводиться не должны же.

MediaInfo что показывает?

Например:

Format                                   : Windows Media
File size                                : 113 MiB
Duration                                 : 3 min 48 s
Overall bit rate mode                    : Constant
Overall bit rate                         : 4 152 kb/s
Maximum Overall bit rate                 : 4 229 kb/s
Encoded date                             : UTC 2009-11-06 06:29:43.635
SfOriginalFPS                            : 299700

Video
ID                                       : 2
Format                                   : VC-1
Format profile                           : MP@HL
Codec ID                                 : WMV3
Codec ID/Info                            : Windows Media Video 9
Codec ID/Hint                            : WMV3
Description of the codec                 : Windows Media Video 9 - Professional
Duration                                 : 3 min 47 s
Bit rate mode                            : Constant
Bit rate                                 : 4 002 kb/s
Width                                    : 1 280 pixels
Height                                   : 720 pixels
Display aspect ratio                     : 16:9
Frame rate                               : 29.970 (29970/1000) FPS
Color space                              : YUV
Chroma subsampling                       : 4:2:0
Bit depth                                : 8 bits
Scan type                                : Progressive
Compression mode                         : Lossy
Bits/(Pixel*Frame)                       : 0.145
Stream size                              : 109 MiB (96%)
Language                                 : English (United States)

Audio
ID                                       : 1
Format                                   : WMA
Format version                           : Version 2
Codec ID                                 : 161
Codec ID/Info                            : Windows Media Audio
Description of the codec                 : Windows Media Audio 9.2 - 192 kbps, 48 kHz, stereo (A/V) 1-pass CBR
Duration                                 : 3 min 48 s
Bit rate mode                            : Constant
Bit rate                                 : 192 kb/s
Channel(s)                               : 2 channels
Sampling rate                            : 48.0 kHz
Bit depth                                : 16 bits
Stream size                              : 5.22 MiB (5%)
Language                                 : English (United States)

У меня проблем с WMV нет

От видео и бекенда плеера зависит, одно в одном артефачит, другое в другом. MPV почти все видео артефачит, в VLC ситуация лучше в общем, но тоже может где-то налажать.

Можешь запихать их в MKV

Не помогает.

проверь ещё через ffplay file.vmw. он в кансоль тебе нопишет если бошибки в самом файле.

Не, это общая проблема формата и плееров, не конкретных файлов.

Ros ★★★ ()
Ответ на: комментарий от EXL

Древнее зло пробудилось!

Да уж, чего это использовали раньше вообще, когда есть xvid и 264, кроме случаев с дрм, тут уж совсем клиника.

Конвертируй в нормальный формат это говно.

Да если бы было так просто.

Ros ★★★ ()
Ответ на: комментарий от EXL

Нечего на WMV наезжать. VC1 почти на уровне H.264 и он наряду с H.264 стандартизирован для BluRay. А WMA (особенно Pro 10) получше MP3 будет. Даже на 64 kbps вполне слушабелен.

У меня проблемы с WMV бывают только при перемотке. Лечится перепаковкой в MKV. Ну а VLC вообще славится артефактами. Может у тебя плееры аппаратно пытаются играть?

Видео с ДРМ просто так вовсе воспроизводиться не должны же

Должны с артефактами. Все параметры доступны, только MediaInfo должна написать Is Encrypted.

никогда таких и не видел даже

Мне попадались. Через WMP нужно лицензию загружать.

чего это использовали раньше вообще

Изкоробки доступно в винде. Некоторые студии на Маке в QuickTime даже ставят сторонний платный WMV плагин, чтобы сохранять в него. Вот это действительно извращение.

anonymous ()
Ответ на: комментарий от anonymous

Вот это действительно извращение

Приходится ущербных виндузятников поддерживать. Ведь даже семерочные изкоробочные h264/divx декодеры далеко не всеядные и безглючные, а деньги заплачены.

anonymous ()
Ответ на: комментарий от anonymous

Они и в 10-ке не идеальные, даже звука в настоящих всамделишных коммерческих игорях не было. Там ещё где-то была страничка с описанием дырявых стандартных декодеров (а ля arbitrary code execution), которые никто исправлять не будет (какие-то уже отключили наконец в последних апдейтах 10).

anonymous ()
Ответ на: комментарий от anonymous

Нечего на WMV наезжать. VC1 почти на уровне H.264 и он наряду с H.264 стандартизирован для BluRay. А WMA (особенно Pro 10) получше MP3 будет. Даже на 64 kbps вполне слушабелен.

Да чо-то он скорее на xvid похож, но получше немного.

Ros ★★★ ()
Ответ на: комментарий от Ros

Смотря на каких битрейтах использовать. Так то и MPEG2 хороший кодек, но ему надо много битрейта.

anonymous ()
7 марта 2019 г.

Выставил в smplayer вывод через gpu и, вроде, все стало хорошо. Раньше был вывод через vdpau. Только непонятно, что за gpu, если vdpau - это и есть gpu о_О

Ros ★★★ ()
Вы не можете добавлять комментарии в эту тему. Тема перемещена в архив.