LINUX.ORG.RU

Предположу, что эта информация совершенно не обязательно сохранена в медиафайле. Насколько я понимаю, в большинстве случаев он вообще угадывает параметры по содержимому.

kirill_rrr ★★★★★ ()

Не совсем понимаю о какой информации речь, но из альтернатив есть ffprobe (поставляется вместе с ffmpeg).

Deleted ()
Ответ на: комментарий от Deleted
Encoding settings                        : cabac=1 / ref=4 / deblock=1:-1:-1 / analyse=0x3:0x133 / me=umh / subme=10 / psy=1 / psy_rd=1,00:0,15 / mixed_ref=1 / me_range=24 / chroma_me=1 / trellis=2 / 8x8dct=1 / cqm=0 / deadzone=21,11 / fast_pskip=0 / chroma_qp_offset=-3 / threads=6 / lookahead_threads=1 / sliced_threads=0 / nr=0 / decimate=1 / interlaced=0 / bluray_compat=0 / constrained_intra=0 / bframes=6 / b_pyramid=2 / b_adapt=2 ...
Ros ★★ ()
Ответ на: комментарий от Ros

Хм, не, ffprobe такого не показывает, там проще выхлоп:

Input #0, mov,mp4,m4a,3gp,3g2,mj2, from 'file:///media/G/data/Torrents/gjhyj/tmp/Private.com Julia Red, Debuts For Private With Anal And... - EPORNER-94WMOuYnYyw.mp4':
  Metadata:
    major_brand     : isom
    minor_version   : 512
    compatible_brands: isomiso2avc1mp41
    encoder         : Lavf58.12.100
  Duration: 00:10:15.50, start: 0.023220, bitrate: 3031 kb/s
    Stream #0:0(und): Video: h264 (High) (avc1 / 0x31637661), yuv420p, 1280x720 [SAR 1:1 DAR 16:9], 2896 kb/s, 24 fps, 24 tbr, 12288 tbn, 48 tbc (default)
    Metadata:
      handler_name    : VideoHandler
    Stream #0:1(und): Audio: aac (LC) (mp4a / 0x6134706D), 44100 Hz, stereo, fltp, 128 kb/s (default)
    Metadata:
      handler_name    : SoundHandler

Deleted ()

ffprobe -show_entries stream=bit_rate xxx.mp4

madcore ★★★★★ ()

Их можно затирать. А значит уже не восстановить.

RazrFalcon ★★★★★ ()
Ответ на: комментарий от RazrFalcon

Как проприетарщина, чтобы не было видно, что там наговнокожено, понятно всё с ними.

Ros ★★ ()

Эта информация тупо пишется (или не пишется) энкодером. Никакого анализа mediainfo не делает, а тупо читает строку из файла: https://i.imgur.com/y4E4HSq.png

anonymous ()

Хех, щас же сам взял файл, у которого эти данные отображались, обрезал с помощью Avidemux и всё, нету их.

Ros ★★ ()

Можно открыть в Avidemux, посмотреть структуру кадров IPB, длину GOP. Интересно бывает узнать применялся ли детектор сцен в MPEG2 видео.
В Bitrate Viewer можно посмотреть график битрейта. А чтобы он не лез в сеть:

Windows Registry Editor Version 5.00

[HKEY_CURRENT_USER\Software\EDV & Astro Service\BitrateViewer\Preferences]
"VersionCheck:Deny"=dword:00000001
"SplashScreenEnable"=dword:00000000

sudo nano /etc/hosts
127.0.0.1       www.winhoros.de
Библиотека mfc70.dll еще нужна.
Есть нативные проекты для видео, для звука.

anonymous ()
Вы не можете добавлять комментарии в эту тему. Тема перемещена в архив.