LINUX.ORG.RU

[videoHD][kubuntu 10.10] nvidia драйвер


0

1

Не знаю как у других, но у меня HD видео (имеются в виду рипы с битрейтом от 6.5мб/с. в формате wmv и mkv, так популярные на трекерах..) играло, скажем так, хреново - появлялись какие-то полоски (видео какбы «ломается»), иногда подтормаживало, и т.д. Сегодня в убунте в обновлениях появились пакеты nvidia-current и все, что прилагается, настройки там и т.п... Так вот, видео стало играть намного лучше. Полосок почти нет, тормозов тоже.. Ну, скажем так, если раньше было 100%, то сейчас, на глаз, тормоза снизились примерно до 20-30%.

Вопрос - у меня одного такое, или там что-то исправили/сделали ?


>в формате wmv и mkv
Как вы достали.
Это контейнер.

6.5мб/с

Такое в mpeg2 мой процессор не загрузит и наполовину, а в h264 будет слайдшоу!

anon_666 ()

>nvidia

Ну, скажем так, если раньше было 100%, то сейчас, на глаз, тормоза снизились примерно до 20-30%.

wtf? мсье не осилил vdpau?

evoken ()

владелец ати ваши проблемы за проблемы не считает.

ipeacocks ★★★★★ ()
Ответ на: комментарий от proDOOMman

Хорошие у вас трекеры. Наверно и разрешение видео больше, чем у монитора?

У монитора разрешение 1440x900. Бывает, попадаются файлы больше, да. Там 1900x1000, или что-то в этом роде. Но не буду ж я их кодировать, мне ждать лень :)

Sonsee ()
Ответ на: комментарий от anon_666

Как вы достали. Это контейнер.

Да я знаю, что mkv контейнер. Только это не ответ на вопрос.

Такое в mpeg2 мой процессор не загрузит и наполовину, а в h264 будет слайдшоу!

Ну, представим, что он 4-ядерный, и на каждое ядро по 2.3GHz. Карточка 8600GT. Так потянул бы?

Sonsee ()
Ответ на: комментарий от evoken

wtf? мсье не осилил vdpau?

А что значит не осилил? я имею в виду, там что-то надо подправить? Эта хрень вроде стоит ))

Sonsee ()

Попробуй скормить файл h264 вот так:

mplayer -vo vdpau -vc ffh264vdpau <video>
Какой будет результат?

Kosyak ★★★★ ()
Ответ на: комментарий от Kosyak

Я не нашел сейчас h264, но нашел другой тяжелый wmv. Скажем так, если просто открыть плеером VLC, тормозов, как я и говорил 20-30%, то когда вот так:

x@x:~/Videos/x$ mplayer -vo vdpau -vc ffwmv3vdpau x.wmv

MPlayer 1.0rc4-4.4.5 (C) 2000-2010 MPlayer Team

mplayer: could not connect to socket

mplayer: No such file or directory

Failed to open LIRC support. You will not be able to use your remote control.

Playing x.wmv. ASF file format detected.

[asfheader] Audio stream found, -aid 1

[asfheader] Video stream found, -vid 2

VIDEO: [WMV3] 1920x1080 24bpp 1000.000 fps 8000.0 kbps (976.6 kbyte/s) ========================================================================== Forced video codec: ffwmv3vdpau

Opening video decoder: [ffmpeg] FFmpeg's libavcodec codec family

[VD_FFMPEG] Trying pixfmt=0.

Movie-Aspect is undefined - no prescaling applied.

VO: [vdpau] 1920x1080 => 1920x1080 WMV3 VDPAU acceleration

[VD_FFMPEG] XVMC-accelerated MPEG-2.

[VD_FFMPEG] Trying pixfmt=0.

[VD_FFMPEG] XVMC-accelerated MPEG-2.

[wmv3_vdpau @ 0x657c760]Extra data: 8 bits left, value: 0

[VD_FFMPEG] XVMC-accelerated MPEG-2.

Selected video codec: [ffwmv3vdpau] vfm: ffmpeg (FFmpeg WMV3/WMV9 (VDPAU)) ========================================================================== ========================================================================== Opening audio decoder: [ffmpeg] FFmpeg/libavcodec audio decoders

AUDIO: 44100 Hz, 2 ch, s16le, 128.0 kbit/9.07% (ratio: 16002->176400)

Selected audio codec: [ffwmav2] afm: ffmpeg (DivX audio v2 (FFmpeg)) ========================================================================== AO: [pulse] 44100Hz 2ch s16le (2 bytes per sample)

Starting playback...

A: 231.5 V: 231.5 A-V: -0.000 ct: 0.119 375/375 18% 5% 1.4% 0 0

Exiting... (Quit)

x@x:~/Videos/x$

То тормоза вообще падают почти на нет (5-10%). Но опять же, не совсем...

Я просто толкаюсь от винды, там все ок.

Sonsee ()
Ответ на: комментарий от Sonsee

Все просто - VLC не использует vdpau (аппаратное декодирование видеокартой), поэтому используется проц.

mplayer же, использует vdpau.

VIDEO: [WMV3] 1920x1080 24bpp 1000.000 fps 8000.0 kbps

Я надеюсь, это глюк?

Может видеокарта не тянет... Хотя у меня ионовская 9400 с 10 мбитами h264 спокойно справляется.

Kosyak ★★★★ ()
Ответ на: комментарий от Kosyak

Seems stream 1 codec frame rate differs from container frame rate: 1000.00 (1000/1) -> 29.97 (30000/1001)

Input #0, asf, from 'x.wmv':

Metadata:

WMFSDKVersion : 11.0.5721.5275

WMFSDKNeeded : 0.0.0.0000

IsVBR : 0

Duration: 00:15:48.21, start: 3.000000, bitrate: 8161 kb/s

Stream #0.0: Audio: wmav2, 44100 Hz, 2 channels, s16, 128 kb/s

Stream #0.1: Video: wmv3, yuv420p, 1920x1080, 29.97 tbr, 1k tbn, 1k tbc

Что он пытается сказать? всмысле, фрейм кодека отличается от фрейма контейнера - это как?

Sonsee ()

во-первых vdpau
во-вторых посмотреть на поведение при различном размере кэша
в-третьих посмотреть настройки - постобработки, пропуск кадров и т.д.

megabaks ★★★★ ()
Ответ на: комментарий от Kosyak

> Все просто - VLC не использует vdpau (аппаратное декодирование видеокартой), поэтому используется проц.

4.2. Настройки > Ввод и кодеки > Use GPU acceleration (experimental).

unikum ★★★★★ ()
Ответ на: комментарий от unikum

это вроде не так давно появилось - поэтому для старых версий совсем не 4.2 :)

megabaks ★★★★ ()
Ответ на: комментарий от unikum

Вопрос в том, работает ли оно так же? опция эта, нифига не помогает. А мплеер делает свое дело отлично.

Sonsee ()
Ответ на: комментарий от proDOOMman

>>с битрейтом от 6.5мб/с

Хорошие у вас трекеры. Наверно и разрешение видео больше, чем у монитора?


А причём тут разрешение? Можно с таким же битрейтом и 640x480 закодировать.

firestarter ★★★☆ ()
Ответ на: комментарий от firestarter

А причём тут разрешение?

Намекнуть, мол, качайте с меньшим разрешением и битрейтом, чтоб ничего не тормозило :)

Sonsee ()
Вы не можете добавлять комментарии в эту тему. Тема перемещена в архив.