LINUX.ORG.RU

VLC не хотеть играть файл


0

1

Решил посмотреть спартака в hd, а любимый vlc отказался его играть с такой вот формулировкой:

$ vlc Spartacus.Vengeance.S02E01.1080i.HDTV.Rus.Eng.HDCLUB.ts 
VLC media player 1.1.13 The Luggage (revision exported)
Blocked: call to unsetenv("DBUS_ACTIVATION_ADDRESS")
Blocked: call to unsetenv("DBUS_ACTIVATION_BUS_TYPE")
[0x1cb6120] main libvlc: Running vlc with the default interface. Use 'cvlc' to use vlc without interface.
Blocked: call to setlocale(6, "")
Blocked: call to setlocale(6, "")
[0x7f6ff0c02e50] main demux error: option sub-original-fps does not exist
[0x7f6ff18a74c0] main demux error: option sub-original-fps does not exist
[0x7f6ff18a93e0] main demux error: option sub-original-fps does not exist

Рядом с файлом лежит файл субтитров в utf8, если его удалить ничего не меняется.

Google вразумительного ответа не дал... Кто сталкивался, может? ОС: Arch

Ответ на: комментарий от kostik87

mplayer работает, однако я так же пробовал smplayer для простоты - но он некорректно субтитры отображает. Файл субтитров начинается так:

1 00:00:11,728 --> 00:00:15,347

2 00:00:45,145 --> 00:00:47,746 [ panting ]

3 00:00:56,005 --> 00:00:57,473 [ horse neighing ]

Однако первое, что отрисовывает smplayer - это саб №118 (упреждение в 10 минут примерно) - подгонять самому задержку не хочется, хотелось бы заставить работать VLC, раньше с ним проблем не было.

omegatype ★★★ ()

Попробуй откатить vlc до предыдущих версий. 1.1.13, как выясняется, глючное говно.

fragment ()
Ответ на: комментарий от TheAnonymous

Не разбирался досканально в кодеках никогда.. как-то и так работало, вот вывод mediainfo.

$ mediainfo Spartacus.Vengeance.S02E01.1080i.HDTV.Rus.Eng.HDCLUB.ts 
General
ID                                       : 1 (0x1)
Complete name                            : Spartacus.Vengeance.S02E01.1080i.HDTV.Rus.Eng.HDCLUB.ts
Format                                   : MPEG-TS
File size                                : 6.32 GiB
Duration                                 : 57mn 42s
Overall bit rate mode                    : Variable
Overall bit rate                         : 15.7 Mbps
Maximum Overall bit rate                 : 35.5 Mbps

Video
ID                                       : 4113 (0x1011)
Menu ID                                  : 1 (0x1)
Format                                   : MPEG Video
Format version                           : Version 2
Format profile                           : Main@High
Format settings, BVOP                    : Yes
Format settings, Matrix                  : Custom
Codec ID                                 : 2
Duration                                 : 57mn 42s
Bit rate mode                            : Variable
Bit rate                                 : 14.1 Mbps
Maximum bit rate                         : 17.6 Mbps
Width                                    : 1 920 pixels
Height                                   : 1 080 pixels
Display aspect ratio                     : 16:9
Frame rate                               : 29.970 fps
Color space                              : YUV
Chroma subsampling                       : 4:2:0
Bit depth                                : 8 bits
Compression mode                         : Lossy
Bits/(Pixel*Frame)                       : 0.228
Stream size                              : 5.70 GiB (90%)

Audio #1
ID                                       : 4352 (0x1100)
Menu ID                                  : 1 (0x1)
Format                                   : AC-3
Format/Info                              : Audio Coding 3
Mode extension                           : CM (complete main)
Codec ID                                 : 129
Duration                                 : 57mn 42s
Bit rate mode                            : Constant
Bit rate                                 : 384 Kbps
Channel(s)                               : 6 channels
Channel positions                        : Front: L C R, Side: L R, LFE
Sampling rate                            : 48.0 KHz
Bit depth                                : 16 bits
Compression mode                         : Lossy
Stream size                              : 159 MiB (2%)
Language                                 : Russian

Audio #2
ID                                       : 4353 (0x1101)
Menu ID                                  : 1 (0x1)
Format                                   : AC-3
Format/Info                              : Audio Coding 3
Mode extension                           : CM (complete main)
Codec ID                                 : 129
Duration                                 : 57mn 42s
Bit rate mode                            : Constant
Bit rate                                 : 384 Kbps
Channel(s)                               : 6 channels
Channel positions                        : Front: L C R, Side: L R, LFE
Sampling rate                            : 48.0 KHz
Bit depth                                : 16 bits
Compression mode                         : Lossy
Stream size                              : 159 MiB (2%)
Language                                 : English

Text #1
ID                                       : 4113 (0x1011)-608-1
Menu ID                                  : 1 (0x1)
Format                                   : EIA-608
Muxing mode                              : A/53 / DTVCC Transport
Muxing mode, more info                   : Muxed in Video #1
Duration                                 : 57mn 42s
Bit rate mode                            : Constant
Stream size                              : 0.00 Byte (0%)

Text #2
ID                                       : 4113 (0x1011)-608-2
Menu ID                                  : 1 (0x1)
Format                                   : EIA-608
Muxing mode                              : A/53 / DTVCC Transport
Muxing mode, more info                   : Muxed in Video #1
Duration                                 : 57mn 42s
Bit rate mode                            : Constant
Stream size                              : 0.00 Byte (0%)

Text #3
ID                                       : 4113 (0x1011)-1
Menu ID                                  : 1 (0x1)
Format                                   : EIA-708
Muxing mode                              : A/53 / DTVCC Transport
Muxing mode, more info                   : Muxed in Video #1
Duration                                 : 57mn 42s
Bit rate mode                            : Constant
Stream size                              : 0.00 Byte (0%)

Из исходников собрать vlc имеется ввиду? Это что-то может дать в плане работоспособности?

omegatype ★★★ ()
Ответ на: комментарий от nutz

Установил версию 2 из AUR и.... та же проблема:

$ vlc Spartacus.Vengeance.S02E01.1080i.HDTV.Rus.Eng.HDCLUB.ts 
VLC media player 2.0.0 Twoflower (revision 2.0.0-rc1-215-gc2b2e6a)
[0x165f108] main libvlc: Running vlc with the default interface. Use 'cvlc' to use vlc without interface.
[0x7f71b4c03398] main demux error: option sub-original-fps does not exist

VLC, кажется, не всесилен :(

omegatype ★★★ ()
Ответ на: комментарий от omegatype

Хм, я с ним всего раз в жизни встречался, странно что известный сериал в таком диком формате =(

nutz ★★ ()
Вы не можете добавлять комментарии в эту тему. Тема перемещена в архив.